PDA

View Full Version : Burn won't burn!




TechieJustin
Dec 19, 2009, 04:45 PM
Hi folks, I searched the forum and can't find anything about this issue.
I'm trying to burn a xvid/divx file to dvd using Burn. Burn offers to convert the file so I let it and below is what I get.

The console readout is below as well. I used Burn under Leopard, but it appears to be hosed under SL.
I installed ffmpeg via macports.

FFmpeg version UNKNOWN, Copyright (c) 2000-2009 Fabrice Bellard, et al.
configuration: --disable-muxers --disable-encoders --enable-muxer=avi --enable-muxer=mpeg1vcd --enable-muxer=mpeg2dvd --enable-muxer=mpeg2svcd --enable-muxer=wav --enable-muxer=mp3 --enable-muxer=flac --enable-encoder=ac3 --enable-encoder=mp2 --enable-encoder=libmp3lame --enable-encoder=flac --enable-encoder=wav --enable-encoder=png --disable-protocols --enable-protocol=file --enable-protocol=pipe --disable-bsfs --enable-libmp3lame --disable-shared --enable-gpl --enable-encoder=mpeg4 --enable-encoder=mpeg1video --enable-encoder=mpeg2video --enable-muxer=image2 --enable-encoder=mjpeg --disable-bzlib --disable-ipv6 --disable-network --enable-encoder=pcm_s16le --enable-pthreads --arch=i386 --extra-cflags='-arch i386 -isysroot /Developer/SDKs/MacOSX10.4u.sdk -mmacosx-version-min=10.4' --extra-ldflags='-arch i386 -isysroot /Developer/SDKs/MacOSX10.4u.sdk -mmacosx-version-min=10.4' --enable-cross-compile --enable-muxer=pcm_s16le
libavutil 50. 3. 0 / 50. 3. 0
libavcodec 52.23. 0 / 52.23. 0
libavformat 52.32. 0 / 52.32. 0
libavdevice 52. 2. 0 / 52. 2. 0
libswscale 0. 7. 1 / 0. 7. 1
built on Apr 12 2009 19:08:20, gcc: 4.0.1 (Apple Inc. build 5484)
[NULL @ 0x1011800]Invalid and inefficient vfw-avi packed B frames detected

Seems stream 0 codec frame rate differs from container frame rate: 29.98 (65535/2186) -> 29.97 (30000/1001)
Input #0, avi, from '/Users/justin/Desktop/Ghost Lab s01e11.avi':
Duration: 00:42:58.94, start: 0.000000, bitrate: 1139 kb/s
Stream #0.0: Video: mpeg4, yuv420p, 624x352 [PAR 1:1 DAR 39:22], 29.97 tbr, 29.97 tbn, 29.98 tbc
Stream #0.1: Audio: mp3, 48000 Hz, stereo, s16, 160 kb/s
At least one output file must be specified
FFmpeg version UNKNOWN, Copyright (c) 2000-2009 Fabrice Bellard, et al.
configuration: --disable-muxers --disable-encoders --enable-muxer=avi --enable-muxer=mpeg1vcd --enable-muxer=mpeg2dvd --enable-muxer=mpeg2svcd --enable-muxer=wav --enable-muxer=mp3 --enable-muxer=flac --enable-encoder=ac3 --enable-encoder=mp2 --enable-encoder=libmp3lame --enable-encoder=flac --enable-encoder=wav --enable-encoder=png --disable-protocols --enable-protocol=file --enable-protocol=pipe --disable-bsfs --enable-libmp3lame --disable-shared --enable-gpl --enable-encoder=mpeg4 --enable-encoder=mpeg1video --enable-encoder=mpeg2video --enable-muxer=image2 --enable-encoder=mjpeg --disable-bzlib --disable-ipv6 --disable-network --enable-encoder=pcm_s16le --enable-pthreads --arch=i386 --extra-cflags='-arch i386 -isysroot /Developer/SDKs/MacOSX10.4u.sdk -mmacosx-version-min=10.4' --extra-ldflags='-arch i386 -isysroot /Developer/SDKs/MacOSX10.4u.sdk -mmacosx-version-min=10.4' --enable-cross-compile --enable-muxer=pcm_s16le
libavutil 50. 3. 0 / 50. 3. 0
libavcodec 52.23. 0 / 52.23. 0
libavformat 52.32. 0 / 52.32. 0
libavdevice 52. 2. 0 / 52. 2. 0
libswscale 0. 7. 1 / 0. 7. 1
built on Apr 12 2009 19:08:20, gcc: 4.0.1 (Apple Inc. build 5484)
[NULL @ 0x1011800]Invalid and inefficient vfw-avi packed B frames detected

Seems stream 0 codec frame rate differs from container frame rate: 29.98 (65535/2186) -> 29.97 (30000/1001)
Input #0, avi, from '/Users/justin/Desktop/Ghost Lab s01e11.avi':
Duration: 00:42:58.94, start: 0.000000, bitrate: 1139 kb/s
Stream #0.0: Video: mpeg4, yuv420p, 624x352 [PAR 1:1 DAR 39:22], 29.97 tbr, 29.97 tbn, 29.98 tbc
Stream #0.1: Audio: mp3, 48000 Hz, stereo, s16, 160 kb/s
At least one output file must be specified
FFmpeg version UNKNOWN, Copyright (c) 2000-2009 Fabrice Bellard, et al.
configuration: --disable-muxers --disable-encoders --enable-muxer=avi --enable-muxer=mpeg1vcd --enable-muxer=mpeg2dvd --enable-muxer=mpeg2svcd --enable-muxer=wav --enable-muxer=mp3 --enable-muxer=flac --enable-encoder=ac3 --enable-encoder=mp2 --enable-encoder=libmp3lame --enable-encoder=flac --enable-encoder=wav --enable-encoder=png --disable-protocols --enable-protocol=file --enable-protocol=pipe --disable-bsfs --enable-libmp3lame --disable-shared --enable-gpl --enable-encoder=mpeg4 --enable-encoder=mpeg1video --enable-encoder=mpeg2video --enable-muxer=image2 --enable-encoder=mjpeg --disable-bzlib --disable-ipv6 --disable-network --enable-encoder=pcm_s16le --enable-pthreads --arch=i386 --extra-cflags='-arch i386 -isysroot /Developer/SDKs/MacOSX10.4u.sdk -mmacosx-version-min=10.4' --extra-ldflags='-arch i386 -isysroot /Developer/SDKs/MacOSX10.4u.sdk -mmacosx-version-min=10.4' --enable-cross-compile --enable-muxer=pcm_s16le
libavutil 50. 3. 0 / 50. 3. 0
libavcodec 52.23. 0 / 52.23. 0
libavformat 52.32. 0 / 52.32. 0
libavdevice 52. 2. 0 / 52. 2. 0
libswscale 0. 7. 1 / 0. 7. 1
built on Apr 12 2009 19:08:20, gcc: 4.0.1 (Apple Inc. build 5484)
[NULL @ 0x1011800]Invalid and inefficient vfw-avi packed B frames detected

Seems stream 0 codec frame rate differs from container frame rate: 29.98 (65535/2186) -> 29.97 (30000/1001)
Input #0, avi, from '/Users/justin/Desktop/Ghost Lab s01e11.avi':
Duration: 00:42:58.94, start: 0.000000, bitrate: 1139 kb/s
Stream #0.0: Video: mpeg4, yuv420p, 624x352 [PAR 1:1 DAR 39:22], 29.97 tbr, 29.97 tbn, 29.98 tbc
Stream #0.1: Audio: mp3, 48000 Hz, stereo, s16, 160 kb/s
Could not open '/Users/justin/Documents/Burn Temporary.localized/tempkf.mpg'
ffmpeg -threads 8 -i /Users/justin/Desktop/Ghost Lab s01e11.avi -target ntsc-dvd -ac 2 -aspect 16:9 -acodec mp2 -ab 224000 /Users/justin/Documents/Ghost Lab s01e11.mpgFFmpeg version UNKNOWN, Copyright (c) 2000-2009 Fabrice Bellard, et al.
configuration: --disable-muxers --disable-encoders --enable-muxer=avi --enable-muxer=mpeg1vcd --enable-muxer=mpeg2dvd --enable-muxer=mpeg2svcd --enable-muxer=wav --enable-muxer=mp3 --enable-muxer=flac --enable-encoder=ac3 --enable-encoder=mp2 --enable-encoder=libmp3lame --enable-encoder=flac --enable-encoder=wav --enable-encoder=png --disable-protocols --enable-protocol=file --enable-protocol=pipe --disable-bsfs --enable-libmp3lame --disable-shared --enable-gpl --enable-encoder=mpeg4 --enable-encoder=mpeg1video --enable-encoder=mpeg2video --enable-muxer=image2 --enable-encoder=mjpeg --disable-bzlib --disable-ipv6 --disable-network --enable-encoder=pcm_s16le --enable-pthreads --arch=i386 --extra-cflags='-arch i386 -isysroot /Developer/SDKs/MacOSX10.4u.sdk -mmacosx-version-min=10.4' --extra-ldflags='-arch i386 -isysroot /Developer/SDKs/MacOSX10.4u.sdk -mmacosx-version-min=10.4' --enable-cross-compile --enable-muxer=pcm_s16le
libavutil 50. 3. 0 / 50. 3. 0
libavcodec 52.23. 0 / 52.23. 0
libavformat 52.32. 0 / 52.32. 0
libavdevice 52. 2. 0 / 52. 2. 0
libswscale 0. 7. 1 / 0. 7. 1
built on Apr 12 2009 19:08:20, gcc: 4.0.1 (Apple Inc. build 5484)
[NULL @ 0x1011800]Invalid and inefficient vfw-avi packed B frames detected

Seems stream 0 codec frame rate differs from container frame rate: 29.98 (65535/2186) -> 29.97 (30000/1001)
Input #0, avi, from '/Users/justin/Desktop/Ghost Lab s01e11.avi':
Duration: 00:42:58.94, start: 0.000000, bitrate: 1139 kb/s
Stream #0.0: Video: mpeg4, yuv420p, 624x352 [PAR 1:1 DAR 39:22], 29.97 tbr, 29.97 tbn, 29.98 tbc
Stream #0.1: Audio: mp3, 48000 Hz, stereo, s16, 160 kb/s
Output #0, dvd, to '/Users/justin/Documents/Ghost Lab s01e11.mpg':
Stream #0.0: Video: mpeg2video, yuv420p, 720x480 [PAR 32:27 DAR 16:9], q=2-31, 6000 kb/s, 90k tbn, 29.97 tbc
Stream #0.1: Audio: mp2, 48000 Hz, stereo, s16, 224 kb/s
Stream mapping:
Stream #0.0 -> #0.0
Stream #0.1 -> #0.1
Press [q] to stop encoding
[mpeg4 @ 0x1011800]Invalid and inefficient vfw-avi packed B frames detected
frame= 71 fps= 0 q=2.0 size= 1574kB time=2.34 bitrate=5520.6kbits/s
SNIP
video:1047757kB audio:70518kB global headers:0kB muxing overhead 2.990574%
FFmpeg version UNKNOWN, Copyright (c) 2000-2009 Fabrice Bellard, et al.
configuration: --disable-muxers --disable-encoders --enable-muxer=avi --enable-muxer=mpeg1vcd --enable-muxer=mpeg2dvd --enable-muxer=mpeg2svcd --enable-muxer=wav --enable-muxer=mp3 --enable-muxer=flac --enable-encoder=ac3 --enable-encoder=mp2 --enable-encoder=libmp3lame --enable-encoder=flac --enable-encoder=wav --enable-encoder=png --disable-protocols --enable-protocol=file --enable-protocol=pipe --disable-bsfs --enable-libmp3lame --disable-shared --enable-gpl --enable-encoder=mpeg4 --enable-encoder=mpeg1video --enable-encoder=mpeg2video --enable-muxer=image2 --enable-encoder=mjpeg --disable-bzlib --disable-ipv6 --disable-network --enable-encoder=pcm_s16le --enable-pthreads --arch=i386 --extra-cflags='-arch i386 -isysroot /Developer/SDKs/MacOSX10.4u.sdk -mmacosx-version-min=10.4' --extra-ldflags='-arch i386 -isysroot /Developer/SDKs/MacOSX10.4u.sdk -mmacosx-version-min=10.4' --enable-cross-compile --enable-muxer=pcm_s16le
libavutil 50. 3. 0 / 50. 3. 0
libavcodec 52.23. 0 / 52.23. 0
libavformat 52.32. 0 / 52.32. 0
libavdevice 52. 2. 0 / 52. 2. 0
libswscale 0. 7. 1 / 0. 7. 1
built on Apr 12 2009 19:08:20, gcc: 4.0.1 (Apple Inc. build 5484)

Seems stream 0 codec frame rate differs from container frame rate: 59.94 (60000/1001) -> 29.97 (30000/1001)
Input #0, mpeg, from '/Users/justin/Documents/Ghost Lab s01e11.mpg':
Duration: 00:42:58.92, start: 0.500000, bitrate: 3658 kb/s
Stream #0.0[0x1e0]: Video: mpeg2video, yuv420p, 720x480 [PAR 32:27 DAR 16:9], 9000 kb/s, 29.97 tbr, 90k tbn, 59.94 tbc
Stream #0.1[0x1c0]: Audio: mp2, 48000 Hz, stereo, s16, 224 kb/s
At least one output file must be specified



asterizk
Dec 31, 2009, 05:33 PM
Did you ever find a solution to this? I too just ran into the same error (same output in Burn's Console) after attempting to burn a DVD-video disc. I too went through the conversion process, so perhaps there's a problem there?

I didn't install ffmpeg (at least, not that I'm aware of), I think everything that's required is included with Burn...

asterizk
Dec 31, 2009, 05:43 PM
Incidentally I'm going to poke around Burn's discussion forum and see what I can find... will report back here if i find anything useful...

http://sourceforge.net/projects/burn-osx/forums/forum/578948