ffmpegX not converting

Discussion in 'Mac Basics and Help' started by Tim117, Dec 17, 2007.

  1. Tim117 macrumors regular

    Joined:
    Jan 6, 2007
    Location:
    BC Canada
    #1
    I'm try to convert a asf movie to a mpeg4 movie, so I can put it on my iPod. I press encode, then it says finished in less than a second, and it doesn't appear on my desktop. So I click on Info and it gives me this message.

    Seems that stream 1 comes from film source: 1000.00 (1000/1) -> 29.97 (30000/1001)
    Input #0, asf, from '/Users/timwheaton/Desktop/The Torch.wmv':
    Duration: 00:05:10.3, start: 5.000000, bitrate: 2161 kb/s
    Stream #0.0: Audio: wmav2, 48000 Hz, stereo, 128 kb/s
    Stream #0.1, 29.97 fps(r): Video: WMV3 / 0x33564D57, 640x480
    Incorrect frame rate
     
  2. Eidorian macrumors Penryn

    Eidorian

    Joined:
    Mar 23, 2005
    Location:
    Indianapolis
  3. Tim117 thread starter macrumors regular

    Joined:
    Jan 6, 2007
    Location:
    BC Canada
    #3
    iSquint worked great thank you.
     
  4. Eidorian macrumors Penryn

    Eidorian

    Joined:
    Mar 23, 2005
    Location:
    Indianapolis
    #4
    I was a little worried since it was a ASF file.
     

Share This Page