Handbrake encoding Problem

teobilly

macrumors member
Original poster
Jun 7, 2011
30
5
Hello guys, I have a problem with Handbrake.
I want to convert a mvk, but the conversion stops after some time.
Here is the log:
[10:06:55] hb_init: starting libhb thread
[10:06:55] macgui: Handbrake Version: 0.9.9 x86_64 (2013051800)
[10:06:55] hb_init: starting libhb thread
[10:06:55] hb_init: starting libhb thread
[10:06:55] macgui: hbInstances path to this instance: /Applications/HandBrake.app
[10:06:55] macgui: hbInstance found instance pidnum:766 at path: /Applications/HandBrake.app
[10:06:55] macgui: hbInstance MATCH FOUND, our pidnum is:766
[10:06:55] macgui: Pid for this instance:766
[10:06:55] macgui: HBQueueController : My Pidnum is 766
[10:06:58] macgui: trying to open video_ts folder (parent directory chosen)
[10:06:58] macgui: scanning titles with a duration of 10 seconds or more
[10:06:58] hb_scan: path=/Users/matteo/Desktop/Cattivissimo.Me.2-Despicable.Me.2.2013.DTS.ITA.ENG.1080p.BluRay.x264-BLUWORLD/Cattivissimo.Me.2-Despicable.Me.2.2013.DTS.ITA.ENG.1080p.BluRay.x264-BLUWORLD.mkv, title_index=0
libbluray/bdnav/index_parse.c:162: indx_parse(): error opening /Users/matteo/Desktop/Cattivissimo.Me.2-Despicable.Me.2.2013.DTS.ITA.ENG.1080p.BluRay.x264BLUWORLD/Cattivissimo.Me.2Despicable.Me.2.2013.DTS.ITA.ENG.1080p.BluRay.x264BLUWORLD.mkv/BDMV/index.bdmv
libbluray/bdnav/index_parse.c:162: indx_parse(): error opening /Users/matteo/Desktop/Cattivissimo.Me.2Despicable.Me.2.2013.DTS.ITA.ENG.1080p.BluRay.x264BLUWORLD/Cattivissimo.Me.2Despicable.Me.2.2013.DTS.ITA.ENG.1080p.BluRay.x264-BLUWORLD.mkv/BDMV/BACKUP/index.bdmv
libbluray/bluray.c:1725: nav_get_title_list(/Users/matteo/Desktop/Cattivissimo.Me.2-Despicable.Me.2.2013.DTS.ITA.ENG.1080p.BluRay.x264-BLUWORLD/Cattivissimo.Me.2-Despicable.Me.2.2013.DTS.ITA.ENG.1080p.BluRay.x264-BLUWORLD.mkv) failed (0x103085e00)
[10:06:58] bd: not a bd - trying as a stream/file instead
libdvdnav: Using dvdnav version 4.1.3
libdvdread: Using libdvdcss version 1.2.11 for DVD access
libdvdnav:DVDOpenFileUDF:UDFFindFile /VIDEO_TS/VIDEO_TS.IFO failed
libdvdnav:DVDOpenFileUDF:UDFFindFile /VIDEO_TS/VIDEO_TS.BUP failed
libdvdread: Can't open file VIDEO_TS.IFO.
libdvdnav: vm: failed to read VIDEO_TS.IFO
[10:06:58] dvd: not a dvd - trying as a stream/file instead
Input #0, matroska,webm, from '/Users/matteo/Desktop/Cattivissimo.Me.2-Despicable.Me.2.2013.DTS.ITA.ENG.1080p.BluRay.x264-BLUWORLD/Cattivissimo.Me.2-Despicable.Me.2.2013.DTS.ITA.ENG.1080p.BluRay.x264-BLUWORLD.mkv':
Duration: 01:37:58.75, start: 0.000000, bitrate: N/A
Chapter #0.0: start 0.000000, end 202.994000
Metadata:
title : 00:00:00.000
Chapter #0.1: start 202.994000, end 484.734000
Metadata:
title : 00:03:22.994
Chapter #0.2: start 484.734000, end 950.867000
Metadata:
title : 00:08:04.734
Chapter #0.3: start 950.867000, end 1108.232000
Metadata:
title : 00:15:50.867
Chapter #0.4: start 1108.232000, end 1476.892000
Metadata:
title : 00:18:28.232
Chapter #0.5: start 1476.892000, end 1850.724000
Metadata:
title : 00:24:36.892
Chapter #0.6: start 1850.724000, end 2080.704000
Metadata:
title : 00:30:50.724
Chapter #0.7: start 2080.704000, end 2448.279000
Metadata:
title : 00:34:40.704
Chapter #0.8: start 2448.279000, end 2786.200000
Metadata:
title : 00:40:48.279
Chapter #0.9: start 2786.200000, end 3083.122000
Metadata:
title : 00:46:26.200
Chapter #0.10: start 3083.122000, end 3387.426000
Metadata:
title : 00:51:23.122
Chapter #0.11: start 3387.426000, end 3600.472000
Metadata:
title : 00:56:27.426
Chapter #0.12: start 3600.472000, end 3807.053000
Metadata:
title : 01:00:00.472
Chapter #0.13: start 3807.053000, end 4124.078000
Metadata:
title : 01:03:27.053
Chapter #0.14: start 4124.078000, end 4441.979000
Metadata:
title : 01:08:44.078
Chapter #0.15: start 4441.979000, end 4688.058000
Metadata:
title : 01:14:01.979
Chapter #0.16: start 4688.058000, end 4953.907000
Metadata:
title : 01:18:08.058
Chapter #0.17: start 4953.907000, end 5229.099000
Metadata:
title : 01:22:33.907
Chapter #0.18: start 5229.099000, end 5433.720000
Metadata:
title : 01:27:09.099
Chapter #0.19: start 5433.720000, end 5878.752000
Metadata:
title : 01:30:33.720
Stream #0.0: Video: h264 (High), yuv420p, 1920x1036 [PAR 1:1 DAR 480:259], 23.98 fps, 23.98 tbr, 1k tbn, 47.95 tbc (default)
Stream #0.1(ita): Audio: dca (DTS), 48000 Hz, 5.1, fltp, 768 kb/s (default)
Metadata:
title : Ita. DTS 768 Kbps
Stream #0.2(ita): Audio: ac3, 48000 Hz, 5.1, fltp, 640 kb/s
Metadata:
title : Ita. AC3 640 Kbps
Stream #0.3(eng): Audio: dca (DTS), 48000 Hz, 5.1, fltp, 1536 kb/s
Metadata:
title : Eng. DTS 1510 Kbps
Stream #0.4(eng): Audio: ac3, 48000 Hz, 5.1, fltp, 640 kb/s
Metadata:
title : Eng. AC3 640 Kbps
Stream #0.5(ita): Subtitle: [0][0][0][0] / 0x0000 (default) (forced)
Metadata:
title : Sub. Ita. Forced
Stream #0.6(ita): Subtitle: [0][0][0][0] / 0x0000
Metadata:
title : Sub. Ita.
Stream #0.7(eng): Subtitle: [0][0][0][0] / 0x0000
Metadata:
title : Sub. Eng. Not Hearing
[10:06:58] scan: decoding previews for title 1
[10:06:58] scan: audio 0x2: AC-3, rate=48000Hz, bitrate=640000 Italiano (AC3) (5.1 ch)
[10:06:58] scan: audio 0x4: AC-3, rate=48000Hz, bitrate=640000 English (AC3) (5.1 ch)
[10:06:58] scan: audio 0x1: dca, rate=48000Hz, bitrate=768000 Italiano (DTS) (5.1 ch)
[10:06:58] scan: audio 0x3: dca, rate=48000Hz, bitrate=1536000 English (DTS) (5.1 ch)
[10:06:58] scan: 10 previews, 1920x1036, 23.976 fps, autocrop = 0/0/0/0, aspect 16:9, PAR 1:1
[10:06:58] libhb: scan thread found 1 valid title(s)
[10:06:58] macgui: showNewScan: This is a new source item scan
[10:07:16] macgui: Rip: Pending queue count is 0
[10:07:16] macgui: getNextPendingQueueIndex next pending encode index is:0
[10:07:16] macgui: scanning specifically for title: 1
[10:07:16] hb_scan: path=/Users/matteo/Desktop/Cattivissimo.Me.2-Despicable.Me.2.2013.DTS.ITA.ENG.1080p.BluRay.x264-BLUWORLD/Cattivissimo.Me.2-Despicable.Me.2.2013.DTS.ITA.ENG.1080p.BluRay.x264-BLUWORLD.mkv, title_index=1
libbluray/bdnav/index_parse.c:162: indx_parse(): error opening /Users/matteo/Desktop/Cattivissimo.Me.2-Despicable.Me.2.2013.DTS.ITA.ENG.1080p.BluRay.x264-BLUWORLD/Cattivissimo.Me.2-Despicable.Me.2.2013.DTS.ITA.ENG.1080p.BluRay.x264-BLUWORLD.mkv/BDMV/index.bdmv
libbluray/bdnav/index_parse.c:162: indx_parse(): error opening /Users/matteo/Desktop/Cattivissimo.Me.2-Despicable.Me.2.2013.DTS.ITA.ENG.1080p.BluRay.x264-BLUWORLD/Cattivissimo.Me.2-Despicable.Me.2.2013.DTS.ITA.ENG.1080p.BluRay.x264-BLUWORLD.mkv/BDMV/BACKUP/index.bdmv
libbluray/bluray.c:1725: nav_get_title_list(/Users/matteo/Desktop/Cattivissimo.Me.2-Despicable.Me.2.2013.DTS.ITA.ENG.1080p.BluRay.x264-BLUWORLD/Cattivissimo.Me.2-Despicable.Me.2.2013.DTS.ITA.ENG.1080p.BluRay.x264-BLUWORLD.mkv) failed (0x104055800)
[10:07:16] bd: not a bd - trying as a stream/file instead
libdvdnav: Using dvdnav version 4.1.3
libdvdread: Using libdvdcss version 1.2.11 for DVD access
libdvdnav:DVDOpenFileUDF:UDFFindFile /VIDEO_TS/VIDEO_TS.IFO failed
libdvdnav:DVDOpenFileUDF:UDFFindFile /VIDEO_TS/VIDEO_TS.BUP failed
libdvdread: Can't open file VIDEO_TS.IFO.
libdvdnav: vm: failed to read VIDEO_TS.IFO
[10:07:16] dvd: not a dvd - trying as a stream/file instead
Input #0, matroska,webm, from '/Users/matteo/Desktop/Cattivissimo.Me.2-Despicable.Me.2.2013.DTS.ITA.ENG.1080p.BluRay.x264-BLUWORLD/Cattivissimo.Me.2-Despicable.Me.2.2013.DTS.ITA.ENG.1080p.BluRay.x264-BLUWORLD.mkv':
Duration: 01:37:58.75, start: 0.000000, bitrate: N/A
Chapter #0.0: start 0.000000, end 202.994000
Metadata:
title : 00:00:00.000
Chapter #0.1: start 202.994000, end 484.734000
Metadata:
title : 00:03:22.994
Chapter #0.2: start 484.734000, end 950.867000
Metadata:
title : 00:08:04.734
Chapter #0.3: start 950.867000, end 1108.232000
Metadata:
title : 00:15:50.867
Chapter #0.4: start 1108.232000, end 1476.892000
Metadata:
title : 00:18:28.232
Chapter #0.5: start 1476.892000, end 1850.724000
Metadata:
title : 00:24:36.892
Chapter #0.6: start 1850.724000, end 2080.704000
Metadata:
title : 00:30:50.724
Chapter #0.7: start 2080.704000, end 2448.279000
Metadata:
title : 00:34:40.704
Chapter #0.8: start 2448.279000, end 2786.200000
Metadata:
title : 00:40:48.279
Chapter #0.9: start 2786.200000, end 3083.122000
Metadata:
title : 00:46:26.200
Chapter #0.10: start 3083.122000, end 3387.426000
Metadata:
title : 00:51:23.122
Chapter #0.11: start 3387.426000, end 3600.472000
Metadata:
title : 00:56:27.426
Chapter #0.12: start 3600.472000, end 3807.053000
Metadata:
title : 01:00:00.472
Chapter #0.13: start 3807.053000, end 4124.078000
Metadata:
title : 01:03:27.053
Chapter #0.14: start 4124.078000, end 4441.979000
Metadata:
title : 01:08:44.078
Chapter #0.15: start 4441.979000, end 4688.058000
Metadata:
title : 01:14:01.979
Chapter #0.16: start 4688.058000, end 4953.907000
Metadata:
title : 01:18:08.058
Chapter #0.17: start 4953.907000, end 5229.099000
Metadata:
title : 01:22:33.907
Chapter #0.18: start 5229.099000, end 5433.720000
Metadata:
title : 01:27:09.099
Chapter #0.19: start 5433.720000, end 5878.752000
Metadata:
title : 01:30:33.720
Stream #0.0: Video: h264 (High), yuv420p, 1920x1036 [PAR 1:1 DAR 480:259], 23.98 fps, 23.98 tbr, 1k tbn, 47.95 tbc (default)
Stream #0.1(ita): Audio: dca (DTS), 48000 Hz, 5.1, fltp, 768 kb/s (default)
Metadata:
title : Ita. DTS 768 Kbps
Stream #0.2(ita): Audio: ac3, 48000 Hz, 5.1, fltp, 640 kb/s
Metadata:
title : Ita. AC3 640 Kbps
Stream #0.3(eng): Audio: dca (DTS), 48000 Hz, 5.1, fltp, 1536 kb/s
Metadata:
title : Eng. DTS 1510 Kbps
Stream #0.4(eng): Audio: ac3, 48000 Hz, 5.1, fltp, 640 kb/s
Metadata:
title : Eng. AC3 640 Kbps
Stream #0.5(ita): Subtitle: [0][0][0][0] / 0x0000 (default) (forced)
Metadata:
title : Sub. Ita. Forced
Stream #0.6(ita): Subtitle: [0][0][0][0] / 0x0000
Metadata:
title : Sub. Ita.
Stream #0.7(eng): Subtitle: [0][0][0][0] / 0x0000
Metadata:
title : Sub. Eng. Not Hearing
[10:07:16] scan: decoding previews for title 1
[10:07:16] scan: audio 0x2: AC-3, rate=48000Hz, bitrate=640000 Italiano (AC3) (5.1 ch)
[10:07:16] scan: audio 0x4: AC-3, rate=48000Hz, bitrate=640000 English (AC3) (5.1 ch)
[10:07:16] scan: audio 0x1: dca, rate=48000Hz, bitrate=768000 Italiano (DTS) (5.1 ch)
[10:07:16] scan: audio 0x3: dca, rate=48000Hz, bitrate=1536000 English (DTS) (5.1 ch)
[10:07:17] scan: 10 previews, 1920x1036, 23.976 fps, autocrop = 0/0/0/0, aspect 16:9, PAR 1:1
[10:07:17] libhb: scan thread found 1 valid title(s)
[10:07:17] macgui: ScanDone state received from fQueueEncodeLibhb
[10:07:17] macgui: Preset: AppleTV 3
[10:07:17] macgui: processNewQueueEncode number of passes expected is: 1
[10:07:17] macgui: Start / Stop set to chapters
[10:07:17] macgui: prepareJob exiting
[10:07:17] 1 job(s) to process
[10:07:17] starting job
[10:07:17] sync: expecting 140949 video frames
[10:07:17] job configuration:
[10:07:17] * source
[10:07:17] + /Users/matteo/Desktop/Cattivissimo.Me.2-Despicable.Me.2.2013.DTS.ITA.ENG.1080p.BluRay.x264-BLUWORLD/Cattivissimo.Me.2-Despicable.Me.2.2013.DTS.ITA.ENG.1080p.BluRay.x264-BLUWORLD.mkv
[10:07:17] + title 1, chapter(s) 1 to 20
[10:07:17] + container: matroska,webm
[10:07:17] * destination
[10:07:17] + /Users/matteo/Desktop/Cattivissimo.Me.2.m4v
[10:07:17] + container: MPEG-4 (.mp4 and .m4v)
[10:07:17] + 64-bit formatting
[10:07:17] + chapter markers
[10:07:17] * video track
[10:07:17] + decoder: h264
[10:07:17] + frame rate: 23.976 fps -> peak rate limited to 30.000 fps
[10:07:17] + filters
[10:07:17] + Decomb (7:2:6:9:1:80)
[10:07:17] + Framerate Shaper (2:27000000:900000)
[10:07:17] + frame rate: 30.000 fps -> peak rate limited to 30.000 fps
[10:07:17] + Crop and Scale (1920:1036:0:0:0:0)
[10:07:17] + source: 1920 * 1036, crop (0/0/0/0): 1920 * 1036, scale: 1920 * 1036
[10:07:17] + loose anamorphic
[10:07:17] + storage dimensions: 1920 * 1036, mod 2
[10:07:17] + pixel aspect ratio: 1 / 1
[10:07:17] + display dimensions: 1920 * 1036
[10:07:17] + encoder: H.264 (x264)
[10:07:17] + x264 preset: medium
[10:07:17] + h264 profile: high
[10:07:17] + h264 level: 4.0
[10:07:17] + quality: 20.00 (RF)
[10:07:17] * audio track 1
[10:07:17] + decoder: Italiano (DTS) (5.1 ch) (track 1, id 0x1)
[10:07:17] + bitrate: 768 kbps, samplerate: 48000 Hz
[10:07:17] + mixdown: Dolby Pro Logic II
[10:07:17] + encoder: AAC (CoreAudio)
[10:07:17] + bitrate: 160 kbps, samplerate: 48000 Hz
[10:07:17] * audio track 2
[10:07:17] + decoder: Italiano (DTS) (5.1 ch) (track 1, id 0x1)
[10:07:17] + bitrate: 768 kbps, samplerate: 48000 Hz
[10:07:17] + mixdown: 5.1 Channels
[10:07:17] + encoder: AC3 (ffmpeg)
[10:07:17] + bitrate: 640 kbps, samplerate: 48000 Hz
[10:07:17] reader: first SCR 0 id 0x0 DTS 0
[10:07:17] encx264: min-keyint: 30, keyint: 300
[10:07:17] encx264: encoding with stored aspect 1/1
[10:07:17] encx264: Encoding at constant RF 20.000000
x264 [warning]: --psnr used with psy on: results will be invalid!
x264 [warning]: --tune psnr should be used if attempting to benchmark psnr!
x264 [info]: using SAR=1/1
x264 [info]: using cpu capabilities: MMX2 SSE2Fast SSSE3 SSE4.2
x264 [info]: profile High, level 4.0
... [matroska,webm @ 0x1040c7600] Read error at pos. 738202793 (0x2c0014a9)
[10:18:59] reader: done. 1 scr changes
[10:19:08] work: average encoding speed for job is 13.950452 fps
[10:19:08] sync: got 9836 frames, 140949 expected
[10:19:08] decomb: deinterlaced 0 | blended 6 | unfiltered 9829 | total 9835
[10:19:08] render: 9835 frames output, 0 dropped and 0 duped for CFR/PFR
[10:19:08] render: lost time: 0 (0 frames)
[10:19:08] render: gained time: 0 (0 frames) (0 not accounted for)
[10:19:08] h264-decoder done: 9836 frames, 0 decoder errors, 0 drops
x264 [info]: frame I:113 Avg QP:16.03 size:223634 PSNR Mean Y:50.35 U:52.52 V:51.83 Avg:50.57 Global:49.78
x264 [info]: frame P:4428 Avg QP:19.43 size: 44585 PSNR Mean Y:47.38 U:49.91 V:49.27 Avg:47.79 Global:47.09
x264 [info]: frame B:5294 Avg QP:21.53 size: 11988 PSNR Mean Y:47.51 U:50.05 V:49.16 Avg:47.62 Global:46.41
x264 [info]: consecutive B-frames: 21.5% 15.6% 13.5% 49.3%
x264 [info]: mb I I16..4: 11.3% 78.2% 10.5%
x264 [info]: mb P I16..4: 3.8% 13.4% 1.0% P16..4: 42.9% 13.9% 7.5% 0.0% 0.0% skip:17.5%
x264 [info]: mb B I16..4: 0.2% 1.3% 0.2% B16..8: 34.9% 3.5% 0.7% direct: 2.0% skip:57.1% L0:40.8% L1:52.5% BI: 6.7%
x264 [info]: 8x8 transform intra:74.4% inter:81.5%
x264 [info]: coded y,uvDC,uvAC intra: 60.8% 85.9% 47.2% inter: 16.8% 28.2% 2.8%
x264 [info]: i16 v,h,dc,p: 21% 22% 7% 50%
x264 [info]: i8 v,h,dc,ddl,ddr,vr,hd,vl,hu: 18% 19% 18% 6% 8% 8% 9% 7% 8%
x264 [info]: i4 v,h,dc,ddl,ddr,vr,hd,vl,hu: 22% 19% 11% 6% 12% 10% 10% 6% 5%
x264 [info]: i8c dc,h,v,p: 45% 24% 20% 11%
x264 [info]: Weighted P-Frames: Y:2.2% UV:1.5%
x264 [info]: ref P L0: 64.5% 10.7% 16.9% 7.9% 0.1%
x264 [info]: ref B L0: 86.5% 11.2% 2.3%
x264 [info]: ref B L1: 94.4% 5.6%
x264 [info]: SSIM Mean Y:0.9878486 (19.154db)
x264 [info]: PSNR Mean Y:47.482 U:50.014 V:49.241 Avg:47.730 Global:46.735 kb/s:5580.95
[10:19:08] dca-decoder done: 0 frames, 0 decoder errors, 0 drops
[10:19:08] dca-decoder done: 0 frames, 0 decoder errors, 0 drops
[10:19:08] mux: track 0, 9835 frames, 286153096 bytes, 5579.85 kbps, fifo 1024
[10:19:08] mux: track 1, 19231 frames, 8429004 bytes, 164.36 kbps, fifo 2048
[10:19:08] mux: track 2, 12820 frames, 32819200 bytes, 639.96 kbps, fifo 2048
[10:19:08] libhb: work result = 0
[10:19:08] macgui: incrementQueueItemDone there are no more pending encodes

Help me Thanks!
 

magentawave

macrumors regular
Jun 8, 2009
174
5
Did you ever figure out what the problem with Handbrake was? I think ever since I updated to osx 10.9.3 Handbrake will only compress about 10 seconds of a 5 minute video. It keeps asking if I want to "overwrite" the file even after numerous name changes.
 

magentawave

macrumors regular
Jun 8, 2009
174
5
Thank you. They don't explain on the nightly build page how to install them. I opened the dmg and was able to successfully compress a file but does opening and using that automatically update the version of Handbrake I had before?
 

magentawave

macrumors regular
Jun 8, 2009
174
5
I figured it out. It doesn't do an automatic install in the Application folder so you have to delete the old Handbrake before dragging the new build into the Application folder. Thanks.

You should be able to tell by checking the Get Info window.
 
Register on MacRumors! This sidebar will go away, and you'll see fewer ads.