question about video playback

Discussion in 'iPod touch' started by aminnazifi, Apr 15, 2011.

  1. aminnazifi macrumors newbie

    Joined:
    Apr 2, 2011
    #1
    hi
    i want to but ipod touch 4g 32gb , and it`s so important for me that my ipod will support and play videos that are in my pc , many of my videos are in this format :
    Video
    ID : 0
    Format : MPEG-4 Visual
    Format profile : Simple@L3
    Format settings, BVOP : No
    Format settings, QPel : No
    Format settings, GMC : No warppoints
    Format settings, Matrix : Default (H.263)
    Codec ID : XVID
    Codec ID/Hint : XviD
    Duration : 3mn 47s
    Bit rate : 1 998 Kbps
    Width : 1 080 pixels
    Height : 720 pixels
    Display aspect ratio : 3:2
    Frame rate : 30.000 fps
    Color space : YUV
    Chroma subsampling : 4:2:0
    Bit depth : 8 bits
    Scan type : Progressive
    Compression mode : Lossy
    Bits/(Pixel*Frame) : 0.086
    Stream size : 54.2 MiB (91%)
    Writing library : XviD 1.2.1 (UTC 2008-12-04)

    Audio
    ID : 1
    Format : MPEG Audio
    Format version : Version 1
    Format profile : Layer 3
    Mode : Joint stereo
    Codec ID : 55
    Codec ID/Hint : MP3
    Duration : 3mn 47s
    Bit rate mode : Variable
    Bit rate : 192 Kbps
    Channel(s) : 2 channels
    Sampling rate : 48.0 KHz
    Compression mode : Lossy
    Stream size : 5.10 MiB (9%)
    Alignment : Aligned on interleaves
    Interleave, duration : 24 ms (0.72 video frame)
    Interleave, preload duration : 579 ms
    Writing library : LAME3.98

    can i play these files , with a application in ipod ? and also mkv files like this details ?
     
  2. tucker61 macrumors regular

    Joined:
    Jun 12, 2008
    #2
    I use air video, which converts and streams the divx videos from my pc.
    You have to install a small program onto pc, but works perfectly.

    I also have winavi, which converts divx into the iPod video format, you then can sync the file onto your iPod.
     
  3. caspersoong macrumors 6502a

    Joined:
    Feb 27, 2011
    #3
    Vlc on iOS would play.avi if it was lower resolution.
     
  4. aminnazifi thread starter macrumors newbie

    Joined:
    Apr 2, 2011
    #4
    i know with converting i can , i don`t want to convert videos , just copy to ipod and play it with a app , like buzz player or .. , can i ?
     
  5. Brucewl macrumors 6502

    Brucewl

    Joined:
    Sep 15, 2010
    #5
    Yes you can, you can just install an media player in your iPod Touch, like as VLC Player or Oplayer, find them in iTunes Store. And then, when you want to sync some videos in your iPod, you need to click the icon of your iPod Touch on iTunes, click "Apps" section. You can find "add files" in this page.
    [​IMG]
     

Share This Page