QuickTime Player: rotated *.mp4 (from dailymotion) to left and tried to export

Discussion in 'Digital Video' started by Quotenfrau, Dec 24, 2011.

  1. Quotenfrau macrumors 6502

    Quotenfrau

    Joined:
    Mar 6, 2011
    #1
    Hi

    In QuickTime Player I rotated *.mp4 (downloaded from dailymotion) to left and tried to export in 480p.

    But the export doesn't work. Since 10 minutes there is no progress.

    [​IMG]

    [​IMG]

    info about the video:

    Code:
    > mediainfo test.mp4
    General
    Complete name                            : test.mp4
    Format                                   : MPEG-4
    Format profile                           : Base Media
    Codec ID                                 : isom
    File size                                : 1.67 MiB
    Duration                                 : 34s 621ms
    Overall bit rate mode                    : Variable
    Overall bit rate                         : 404 Kbps
    Tagged date                              : UTC 2011-09-28 01:48:40
    Writing application                      : edge 1.7.3
    orig                                     : proxy-05.dailymotion.com
    cstt                                     : 1
    pdur                                     : 34.621
    coff                                     : 0.000
    abit                                     : 47
    vbit                                     : 363
    pbyt                                     : 1747470
    cbyt                                     : 1747668   
    
    Video
    ID                                       : 1
    Format                                   : AVC
    Format/Info                              : Advanced Video Codec
    Format profile                           : Baseline@L3.0
    Format settings, CABAC                   : No
    Format settings, ReFrames                : 1 frame
    Codec ID                                 : avc1
    Codec ID/Info                            : Advanced Video Coding
    Duration                                 : 34s 621ms
    Bit rate mode                            : Variable
    Bit rate                                 : 360 Kbps
    Width                                    : 288 pixels
    Height                                   : 360 pixels
    Display aspect ratio                     : 0.800
    Frame rate mode                          : Variable
    Frame rate                               : 6.875 fps
    Minimum frame rate                       : 6.992 fps
    Maximum frame rate                       : 874.000 fps
    Color space                              : YUV
    Chroma subsampling                       : 4:2:0
    Bit depth                                : 8 bits
    Scan type                                : Progressive
    Bits/(Pixel*Frame)                       : 0.505
    Stream size                              : 1.46 MiB (87%)
    Writing library                          : x264 core 112 r1834 a51816a
    Encoding settings                        : cabac=0 / ref=1 / deblock=1:0:0 / analyse=0x1:0x111 / me=hex / subme=7 / psy=1 / psy_rd=1.00:0.00 / mixed_ref=0 / me_range=8 / chroma_me=1 / trellis=1 / 8x8dct=0 / cqm=0 / deadzone=21,11 / fast_pskip=1 / chroma_qp_offset=-2 / threads=4 / sliced_threads=0 / nr=0 / decimate=1 / interlaced=0 / constrained_intra=0 / bframes=0 / weightp=0 / keyint=35 / keyint_min=18 / scenecut=40 / intra_refresh=0 / rc_lookahead=40 / rc=2pass / mbtree=1 / bitrate=360 / ratetol=1.0 / qcomp=0.60 / qpmin=10 / qpmax=51 / qpstep=4 / cplxblur=20.0 / qblur=0.5 / vbv_maxrate=400 / vbv_bufsize=4000 / ip_ratio=1.41 / aq=1:1.00 / nal_hrd=none
    Material_Duration                        : 33613
    Material_StreamSize                      : 1527125
    Material_FrameCount                      : 238
    
    Audio
    ID                                       : 2
    Format                                   : AAC
    Format/Info                              : Advanced Audio Codec
    Format profile                           : LC
    Codec ID                                 : 40
    Duration                                 : 34s 621ms
    Bit rate mode                            : Variable
    Bit rate                                 : 48.0 Kbps
    Channel(s)                               : 1 channel
    Channel positions                        : Front: C
    Sampling rate                            : 44.1 KHz
    Compression mode                         : Lossy
    Stream size                              : 200 KiB (12%)
    
    
    Other way to do the same?

    Are there any logs? Howto troubleshoot why this don't work?
     
  2. Quotenfrau thread starter macrumors 6502

    Quotenfrau

    Joined:
    Mar 6, 2011
    #2
    Update: tried to do the rotation in iMovies, but in the resulting *.m4v there is no motion pictures (only black). There was already no preview in iMovie during editing.

    [​IMG]
     
  3. Quotenfrau thread starter macrumors 6502

    Quotenfrau

    Joined:
    Mar 6, 2011
    #4
    Thanks simsaladimbamba. Worked fine.

    This "MPEG Streamclip" is a complicated piece of software. Is there a manual?

    I even had to try and error which option to take for rotation :mad:
     
  4. cgbier macrumors 6502a

    Joined:
    Jun 6, 2011
    #5
    There's a quick'n'dirty manual in the Help Menu.
    It won't really guide you through the program like the old FCP manuals did, but at least it gives some idea what each button/menu does in MPEGSC.
    You might need to read up a bit on video technology background, though, to fully understand (I don't know your level of knowledge)

    Fröhliche Weihnacht.
     
  5. Quotenfrau thread starter macrumors 6502

    Quotenfrau

    Joined:
    Mar 6, 2011
    #6
    in video technology I have zero knowledge, but I will learn fast, because I am experienced in other IT products.

    I would be very interested in a vendor neutral introduction to video technology. Please recommend me a book.

    das gleiche wünsche ich dir und deiner Familie auch.
     
  6. cgbier macrumors 6502a

    Joined:
    Jun 6, 2011
    #7
    I couldn't recommend a book out of the hollow of my head right now, but a good starting point is the wiki entry on digital video. Follow the links and you have a lot of reading pleasure over the holidays.

    Die Familie sagt Danke!
     

Share This Page